Ted Bundy Fascino Criminale 2019 BY Mul1n0

Ted Bundy Fascino Criminale 2019  BY Mul1n0
Ted Bundy Fascino Criminale (2019)
BY Mul1n0
.: Scheda del Film :.
Titolo originale: Extremely Wicked, Shockingly Evil and Vile
Nazionalità: Usa
Anno: 2019
Genere: thriller, biografico, giallo
Regia: Joe Berlinger
Cast:
Zac Efron: Ted Bundy
Lily Collins: Liz Kendall
Kaya Scodelario: Carole Ann Boone
John Malkovich: giudice Edward D. Cowart
Jeffrey Donovan: John O'Connell
Haley Joel Osment: Jerry Thompson
Angela Sarafyan: Joanna
Jim Parsons: Larry Simpson
Dylan Baker: David Yocom
Brian Geraghty: Dan Dowd
James Hetfield: agente Bob Hayward
Terry Kinney: detective Mike Fisher

.: Trama :.
Nel 1969 a Seattle, Ted Bundy incontra Liz Kendall, studentessa universitaria e madre single. I due iniziano a frequentarsi e Ted aiuta Liz a crescere la sua giovane figlia, Molly.
Nel 1974, le notizie annunciano la scomparsa di molte giovani donne in tutto Washington e in Oregon, tra cui due rapimenti che hanno avuto luogo in pieno giorno al Lake Sammamish State Park. Un uomo che assomigliava a Ted è stato visto da diverse persone che chiedevano alle donne di aiutarlo a caricare una barca a vela su una Volkswagen Maggiolino. Viene rilasciato uno schizzo composito dell'attaccante e, dopo centinaia di telefonate, Ted viene arrestato nel 1975.
Carol DaRonch prende Ted da una fila di poliziotti, affermando di averla rapita e minacciata di ucciderla prima che riuscisse a fuggire. Ted è rilasciato su cauzione, tornando a casa da Liz che è sconvolta dopo aver letto un articolo su di lui sul giornale. Ted spiega che a Carol è stata mostrata la sua foto prima della formazione, ed è per questo che le è sembrato familiare e crede di essere stato creato. Dopo un processo di prova di quattro giorni, Ted viene dichiarato colpevole di rapimento aggravato e viene condannato a prestare da uno a un massimo di 15 anni nella prigione dello stato dello Utah. [2]
.: ScreenShot :.

.: Scheda tecnica del filmato :.
General
Complete name : C:Ted.Bundy.Fascino.Criminale.2019.iTALiAN.LD.WEBDL.XviD-iSTANCE.avi
Format : AVI
Format/Info : Audio Video Interleave
File size : 1.37 GiB
Duration : 1 h 49 min
Overall bit rate : 1 790 kb/s
Writing library : VirtualDub build 35491/release
Video
ID : 0
Format : MPEG-4 Visual
Format profile : Advanced Simple@L5
Format settings : BVOP2
Format settings, BVOP : 2
Format settings, QPel : No
Format settings, GMC : No warppoints
Format settings, Matrix : Default (MPEG)
Muxing mode : Packed bitstream
Codec ID : XVID
Codec ID/Hint : XviD
Duration : 1 h 49 min
Bit rate : 1 652 kb/s
Width : 720 pixels
Height : 304 pixels
Display aspect ratio : 2.35:1
Frame rate : 23.976 (24000/1001) FPS
Color space : YUV
Chroma subsampling : 4:2:0
Bit depth : 8 bits
Scan type : Progressive
Compression mode : Lossy
Bits/(Pixel*Frame) : 0.315
Stream size : 1.27 GiB (92%)
Writing library : XviD 67
Audio
ID : 1
Format : MPEG Audio
Format version : Version 1
Format profile : Layer 3
Format settings : Joint stereo / MS Stereo
Codec ID : 55
Codec ID/Hint : MP3
Duration : 1 h 49 min
Bit rate mode : Constant
Bit rate : 128 kb/s
Channel(s) : 2 channels
Sampling rate : 48.0 kHz
Frame rate : 41.667 FPS (1152 SPF)
Compression mode : Lossy
Stream size : 101 MiB (7%)
Alignment : Split accross interleaves
Interleave, duration : 42 ms (1.00 video frame)
Interleave, preload duration : 500 ms
Writing library : LAME3.99r
Encoding settings : -m j -V 4 -q 3 -lowpass 17 -b 128

.: Note :.
Orario di seed e Banda disponibile: ai primi 10 completati, buon download

Scarica Ted Bundy Fascino Criminale 2019 BY Mul1n0

  • Taglia: 1.37 GB
  • Seed:4791 | Leech:5993